<?xml version="1.0" standalone="no"?>
<!DOCTYPE svg PUBLIC "-//W3C//DTD SVG 1.1//EN" "http://www.w3.org/Graphics/SVG/1.1/DTD/svg11.dtd" >
<svg xmlns="http://www.w3.org/2000/svg">
<defs>
  <font id="mti" horiz-adv-x="1000">
    <font-face font-family="mti"
      units-per-em="1000" ascent="1000"
      descent="0" />
    <missing-glyph horiz-adv-x="0" />
    <glyph glyph-name="activate"
      unicode="&#xEA01;"
      horiz-adv-x="1000" d="M281.25 607.14375V392.8562500000001H62.5V607.14375H281.25zM70.484375 132.821875C67.946875 135.3125 65.935625 138.271875 64.565625 141.525C63.195625 144.7781249999999 62.49375 148.265625 62.5 151.784375V339.284375H281.25V232.14375C281.25 203.7281250000001 269.7265625 176.475 249.2146875 156.38125C228.703125 136.2875 200.883125 125 171.875 125H89.84375C86.250625 124.99375 82.69125 125.68125 79.369375 127.0218749999999C76.0475 128.365625 73.0284375 130.334375 70.484375 132.821875zM89.84375 875H171.875C200.883125 875 228.703125 863.711875 249.2146875 843.6184375C269.7265625 823.5253124999999 281.25 796.2731249999999 281.25 767.8571875V660.715625H62.5V848.214375C62.5 855.3184375 65.3809375 862.13125 70.50875 867.1546875C75.636875 872.1778125000001 82.591875 875 89.84375 875zM937.5 687.5V500H718.75V607.14375C718.8375 635.534375 730.3874999999999 662.734375 750.8812499999999 682.809375C771.375 702.885625 799.1437500000001 714.2009375 828.125 714.285625H910.15625C917.409375 714.285625 924.3625 711.46375 929.490625 706.4403125C934.61875 701.4171875 937.5 694.6040625 937.5 687.5zM937.5 258.9281249999999V446.4281249999999H718.75V339.284375C718.8375 310.8968749999999 730.3874999999999 283.69375 750.8812499999999 263.61875C771.375 243.54375 799.1437500000001 232.228125 828.125 232.14375H910.15625C917.409375 232.14375 924.3625 234.965625 929.490625 239.9875000000001C934.61875 245.0125 937.5 251.825 937.5 258.9281249999999zM507.9843750000001 438.60625C505.440625 436.115625 503.425 433.1593750000001 502.05 429.90625C500.675 426.653125 499.965625 423.165625 499.965625 419.64375C499.965625 416.121875 500.675 412.634375 502.05 409.3781250000001C503.425 406.125 505.440625 403.16875 507.9843750000001 400.678125C510.528125 398.1875 513.5437499999999 396.2125 516.865625 394.865625C520.1875 393.515625 523.7468749999999 392.821875 527.34375 392.821875C530.9406250000001 392.821875 534.5 393.515625 537.821875 394.865625C541.1437500000001 396.2125 544.159375 398.1875 546.703125 400.678125L628.734375 481.0343750000001C631.2875 483.51875 633.3125 486.475 634.6968750000001 489.728125C636.078125 492.9843750000001 636.7906250000001 496.475 636.7906250000001 500C636.7906250000001 503.525 636.078125 507.015625 634.6968750000001 510.271875C633.3125 513.5250000000001 631.2875 516.48125 628.734375 518.965625L546.703125 599.321875C544.159375 601.8125 541.1437500000001 603.7874999999999 537.821875 605.134375C534.5 606.484375 530.9406250000001 607.178125 527.34375 607.178125C523.7468749999999 607.178125 520.1875 606.484375 516.865625 605.134375C513.5437499999999 603.7874999999999 510.528125 601.8125 507.9843750000001 599.321875C505.440625 596.83125 503.425 593.875 502.05 590.621875C500.675 587.365625 499.965625 583.878125 499.965625 580.35625C499.965625 576.834375 500.675 573.346875 502.05 570.09375C503.425 566.840625 505.440625 563.884375 507.9843750000001 561.39375L543.36875 526.784375H390.625C383.371875 526.784375 376.4187500000001 523.9625 371.290625 518.940625C366.1625 513.915625 363.28125 507.103125 363.28125 500C363.28125 492.896875 366.1625 486.084375 371.290625 481.0593749999999C376.4187500000001 476.0375 383.371875 473.215625 390.625 473.215625H543.36875L507.9843750000001 438.60625z" />
    <glyph glyph-name="arrow-left"
      unicode="&#xEA02;"
      horiz-adv-x="1000" d="M500 62.5L62.5 500L500 937.5L577.928125 860.9375L271.6796875 554.6875H937.5V445.3125H271.6796875L577.928125 139.0625L500 62.5z" />
    <glyph glyph-name="arrow-rotate-left"
      unicode="&#xEA03;"
      horiz-adv-x="1000" d="M365.46875 221.71875L318.4375 268.75L405.9375 357.34375C306.7715625 368.28125 224.7396875 392.34375 159.84375 429.53125C94.9478125 466.71875 62.5 513.75 62.5 570.625C62.5 628.2281250000001 104.9740625 677.265625 189.921875 717.7334375C274.8696875 758.2021875 378.2281250000001 778.4365625 500 778.4365625C622.5 778.4365625 726.040625 758.2021875 810.625 717.7334375C895.209375 677.265625 937.5 628.2281250000001 937.5 570.625C937.5 527.6031250000001 914.165625 489.6875000000001 867.5 456.875C820.834375 424.0625 758.853125 398.540625 681.5625 380.3125V451.40625C739.896875 465.990625 786.196875 484.946875 820.46875 508.28125C854.740625 531.6156249999999 871.875 552.396875 871.875 570.625C871.875 593.95625 841.43125 623.4875 780.546875 659.21875C719.6625 694.9471874999999 626.146875 712.8115625 500 712.8115625C374.584375 712.8115625 281.25 694.9471874999999 220 659.21875C158.75 623.4875 128.125 593.95625 128.125 570.625C128.125 537.8125 149.0884375 509.55625 191.015625 485.859375C232.9428125 462.1625 305.6778125 440.46875 409.21875 420.78125L318.4375 509.375L365.46875 556.40625L532.8125 390.15625L365.46875 221.71875z" />
    <glyph glyph-name="assingment-user"
      unicode="&#xEA04;"
      horiz-adv-x="1000" d="M112.8121875 62.5V836.8178125H387.871875C390.6375000000001 862.4209375 402.75 885.601875 424.2000000000001 906.36125C445.65 927.1203125 470.909375 937.5 499.971875 937.5C529.034375 937.5 554.2906250000001 927.1203125 575.740625 906.36125C597.19375 885.601875 609.3031249999999 862.4209375 612.0718750000001 836.8178125H887.13125V62.5H112.8121875zM499.971875 808.793125C508.275 808.793125 515.540625 811.7340624999999 521.76875 817.615625C527.996875 823.4975 531.109375 830.59 531.109375 838.89375C531.109375 847.1975 527.996875 854.463125 521.76875 860.6909375C515.540625 866.91875 508.275 870.0325 499.971875 870.0325C491.66875 870.0325 484.575 866.91875 478.69375 860.6909375C472.8125 854.463125 469.86875 847.1975 469.86875 838.89375C469.86875 830.59 472.8125 823.4975 478.69375 817.615625C484.575 811.7340624999999 491.66875 808.793125 499.971875 808.793125zM188.583125 181.865625C230.1015625 221.3093750000001 277.1556250000001 252.965625 329.746875 276.8375C382.334375 300.7125000000001 438.7312500000001 312.646875 498.934375 312.646875C561.209375 312.646875 618.471875 300.7125000000001 670.715625 276.8375C722.9593749999999 252.965625 769.8406249999999 221.3093750000001 811.359375 181.865625V761.046875H188.583125V181.865625zM502.046875 372.85C544.95 372.85 580.93125 387.553125 609.99375 416.9625C639.05625 446.371875 653.5906249999999 482.18125 653.5906249999999 524.390625C653.5906249999999 567.29375 639.05625 603.278125 609.99375 632.340625C580.93125 661.403125 544.95 675.934375 502.046875 675.934375C459.8375 675.934375 424.028125 661.403125 394.6187500000001 632.340625C365.209375 603.278125 350.50625 567.29375 350.50625 524.390625C350.50625 482.18125 365.209375 446.371875 394.6187500000001 416.9625C424.028125 387.553125 459.8375 372.85 502.046875 372.85zM261.2403125 138.271875H738.703125V147.6125000000001C703.4125 176.6750000000001 665.696875 198.81875 625.5656250000001 214.040625C585.43125 229.265625 543.5656250000001 236.8781250000001 499.971875 236.8781250000001C456.378125 236.8781250000001 414.5125 229.265625 374.378125 214.040625C334.2437500000001 198.81875 296.5309375 176.6750000000001 261.2403125 147.6125000000001V138.271875zM502.046875 448.621875C480.596875 448.621875 462.603125 455.8875 448.0718750000001 470.41875C433.5406250000001 484.95 426.2750000000001 502.940625 426.2750000000001 524.390625C426.2750000000001 546.534375 433.5406250000001 564.7 448.0718750000001 578.8843750000001C462.603125 593.0687499999999 480.596875 600.1624999999999 502.046875 600.1624999999999C524.1906250000001 600.1624999999999 542.3562499999999 592.8968749999999 556.540625 578.365625C570.725 563.834375 577.81875 545.84375 577.81875 524.390625C577.81875 502.940625 570.553125 484.95 556.021875 470.41875C541.490625 455.8875 523.4968749999999 448.621875 502.046875 448.621875z" />
    <glyph glyph-name="bug"
      unicode="&#xEA05;"
      horiz-adv-x="1000" d="M499.16875 62.5C445.64375 62.5 395.8062500000001 75.1062500000001 349.6500000000001 100.3156250000001C303.4962500000001 125.525 269.17125 162.1781249999999 246.675625 210.271875H110.5384375V295.2125H215.259375C210.605 313.0562500000001 208.2778125 331.284375 208.2778125 349.9V405.75H109.375V490.6906250000001H208.2778125C208.2778125 510.859375 208.471875 530.834375 208.8596875 550.615625C209.2475 570.396875 212.1565625 589.984375 217.5865625 609.375H110.5384375V694.315H251.3296875C262.1896875 716.035 276.34625 735.0396874999999 293.8 751.3296875C311.2534375 767.6196875 330.453125 781.5825 351.396875 793.218125L261.801875 880.4853125L319.98125 937.5L430.51875 826.9612500000001C453.790625 836.27 477.45 840.9240625 501.4968749999999 840.9240625C525.5437499999999 840.9240625 549.203125 836.27 572.471875 826.9612500000001L681.846875 937.5L738.8625 880.4853125L651.596875 793.218125C672.540625 781.5825 691.15625 767.425625 707.446875 750.7478125C723.7375000000001 734.0703125 738.0875 715.259375 750.5 694.315H888.9625V609.375H780.75C786.9562500000001 589.984375 789.865625 570.396875 789.478125 550.615625C789.090625 530.834375 788.896875 510.859375 788.896875 490.6906250000001H888.9625V405.75H788.896875C788.896875 387.134375 789.090625 368.51875 789.478125 349.9C789.865625 331.284375 787.73125 313.0562500000001 783.078125 295.2125H888.9625V210.271875H752.8249999999999C731.1062499999999 161.4031249999999 696.78125 124.5562500000001 649.85 99.734375C602.9187499999999 74.909375 552.69375 62.5 499.16875 62.5zM499.16875 147.440625C555.7937499999999 147.440625 604.0812500000001 167.221875 644.03125 206.78125C683.9812499999999 246.34375 703.95625 294.4375 703.95625 351.0625V546.54375C703.95625 603.16875 683.9812499999999 651.2625 644.03125 690.8243749999999C604.0812500000001 730.385625 555.7937499999999 750.16625 499.16875 750.16625C442.54375 750.16625 394.25625 730.385625 354.30625 690.8243749999999C314.35625 651.2625 294.3815625000001 603.16875 294.3815625000001 546.54375V351.0625C294.3815625000001 294.4375 314.35625 246.34375 354.30625 206.78125C394.25625 167.221875 442.54375 147.440625 499.16875 147.440625zM400.265625 304.521875H598.071875V389.4625000000001H400.265625V304.521875zM400.265625 508.14375H598.071875V593.084375H400.265625V508.14375z" />
    <glyph glyph-name="burger"
      unicode="&#xEA06;"
      horiz-adv-x="1000" d="M125 750V678.57125H875V750H125zM125 535.714375V464.285625H875V535.714375H125zM125 321.43125V250H875V321.43125H125z" />
    <glyph glyph-name="check-docs"
      unicode="&#xEA07;"
      horiz-adv-x="1000" d="M340.56875 307.303125L133.136875 514.734375L62.5 444.596875L340.56875 166.5281250000001L937.5 763.455625L867.359375 833.5953125L340.56875 307.303125z" />
    <glyph glyph-name="check-rounded"
      unicode="&#xEA08;"
      horiz-adv-x="1000" d="M500 937.5C258.5 937.5 62.5 741.5 62.5 500C62.5 258.5 258.5 62.5 500 62.5C741.5 62.5 937.5 258.5 937.5 500C937.5 741.5 741.5 937.5 500 937.5zM412.5 281.25L193.75 500L255.4375 561.6875L412.5 405.0625L744.5625 737.125L806.25 675L412.5 281.25z" />
    <glyph glyph-name="check"
      unicode="&#xEA09;"
      horiz-adv-x="1000" d="M500 937.5C258.5 937.5 62.5 741.5 62.5 500C62.5 258.5 258.5 62.5 500 62.5C741.5 62.5 937.5 258.5 937.5 500C937.5 741.5 741.5 937.5 500 937.5zM412.5 281.25L193.75 500L255.4375 561.6875L412.5 405.0625L744.5625 737.125L806.25 675L412.5 281.25z" />
    <glyph glyph-name="circle-exclamation"
      unicode="&#xEA0A;"
      horiz-adv-x="1000" d="M500 281.253125C512.39375 281.253125 522.7937499999999 285.453125 531.19375 293.8531250000001C539.5625 302.221875 543.75 312.60625 543.75 325C543.75 337.396875 539.5625 347.7937500000001 531.19375 356.19375C522.7937499999999 364.565625 512.39375 368.7531250000001 500 368.7531250000001C487.603125 368.7531250000001 477.21875 364.565625 468.85 356.19375C460.45 347.7937500000001 456.25 337.396875 456.25 325C456.25 312.60625 460.45 302.221875 468.85 293.8531250000001C477.21875 285.453125 487.603125 281.253125 500 281.253125zM500 62.503125C439.478125 62.503125 382.603125 73.99375 329.375 96.9812500000001C276.145625 119.9312500000001 229.843125 151.09375 190.468125 190.46875C151.093125 229.84375 119.9290625 276.146875 96.975 329.378125C73.9915625 382.6062500000001 62.5 439.4812500000001 62.5 500C62.5 560.521875 73.9915625 617.396875 96.975 670.625C119.9290625 723.8546875 151.093125 770.1565625000001 190.468125 809.5315625000001C229.843125 848.90625 276.145625 880.0856249999999 329.375 903.06875C382.603125 926.0228125 439.478125 937.5 500 937.5C560.51875 937.5 617.39375 926.0228125 670.625 903.06875C723.853125 880.0856249999999 770.153125 848.90625 809.528125 809.5315625000001C848.9031249999999 770.1565625000001 880.065625 723.8546875 903.021875 670.625C926.003125 617.396875 937.5 560.521875 937.5 500C937.5 439.4812500000001 926.003125 382.6062500000001 903.021875 329.378125C880.065625 276.146875 848.9031249999999 229.84375 809.528125 190.46875C770.153125 151.09375 723.853125 119.9312500000001 670.625 96.9812500000001C617.39375 73.99375 560.51875 62.503125 500 62.503125zM500 456.25C512.39375 456.25 522.7937499999999 460.45 531.19375 468.85C539.5625 477.2218750000001 543.75 487.60625 543.75 500V675C543.75 687.396875 539.5625 697.794375 531.19375 706.194375C522.7937499999999 714.5653125 512.39375 718.7503125000001 500 718.7503125000001C487.603125 718.7503125000001 477.21875 714.5653125 468.85 706.194375C460.45 697.794375 456.25 687.396875 456.25 675V500C456.25 487.60625 460.45 477.2218750000001 468.85 468.85C477.21875 460.45 487.603125 456.25 500 456.25z" />
    <glyph glyph-name="circle-star"
      unicode="&#xEA0B;"
      horiz-adv-x="1000" d="M499.5625 937.5C258.0625 937.5 62.5 741.5 62.5 500C62.5 258.5 258.0625 62.5 499.5625 62.5C741.5 62.5 937.5 258.5 937.5 500C937.5 741.5 741.5 937.5 499.5625 937.5zM685.0625 237.5L500 349.0625L314.9375 237.5L363.9375 447.9375L200.75 589.25L416 607.625L500 806.25L584 608.0625L799.25 589.6875L636.0625 448.375L685.0625 237.5z" />
    <glyph glyph-name="cloud"
      unicode="&#xEA0C;"
      horiz-adv-x="1000" d="M272.3003125 182.44375C213.9678125 182.44375 164.4175 202.828125 123.650625 243.59375C82.8834375 284.3625 62.5 333.9124999999999 62.5 392.24375C62.5 443.95 79.071875 489.35625 112.2159375 528.465625C145.36 567.578125 187.4528125 591.109375 238.494375 599.0625C251.7521875 663.3625 282.9078125000001 715.8953125 331.959375 756.6625C381.0125 797.4293749999999 437.690625 817.8128125000001 501.9875 817.8128125000001C576.2312499999999 817.8128125000001 638.875 790.800625 689.915625 736.7759375C740.95625 682.75 766.478125 617.95625 766.478125 542.3875V518.521875C814.203125 519.8499999999999 854.640625 504.4375 887.784375 472.2875C920.928125 440.1375 937.5 399.5375 937.5 350.484375C937.5 304.74375 920.928125 265.303125 887.784375 232.159375C854.640625 199.015625 815.2 182.44375 769.4593749999999 182.44375H272.3003125zM272.3003125 242.103125H769.4593749999999C799.290625 242.103125 824.8125 252.7062500000001 846.021875 273.921875C867.234375 295.134375 877.840625 320.653125 877.840625 350.484375C877.840625 380.3125 867.234375 405.834375 846.021875 427.046875C824.8125 448.259375 799.290625 458.8625 769.4593749999999 458.8625H706.81875V542.3875C706.81875 602.7093749999999 686.6 653.75 646.165625 695.5118749999999C605.728125 737.2731249999999 556.3468750000001 758.15375 498.009375 758.15375C439.678125 758.15375 390.128125 737.2731249999999 349.359375 695.5118749999999C308.5931250000001 653.75 288.2096875 602.7093749999999 288.2096875 542.3875H269.3175C228.22 542.3875 193.41875 527.96875 164.9146875 499.134375C136.4109375 470.3000000000001 122.1590625 434.6687500000001 122.1590625 392.24375C122.1590625 350.484375 136.7425 315.0187500000001 165.9090625 285.8531250000001C195.0759375 256.684375 230.54 242.103125 272.3003125 242.103125z" />
    <glyph glyph-name="collect"
      unicode="&#xEA0D;"
      horiz-adv-x="1000" d="M528.8937500000001 209.7468750000001C583.3812499999999 215.175 635.240625 235.828125 678.5375 269.346875L782.23125 165.6531249999999C718.3468750000001 111.728125 640.346875 77.234375 557.46875 66.25625C540.1437500000001 63.959375 522.7531250000001 62.7125 505.39375 62.5H494.640625C432.6125 63.2625000000001 371.203125 77.2125 314.58125 103.70625C238.86 139.140625 174.8753125 195.5281250000001 130.2021875 266.19375C85.9671875 336.165625 62.5 417.234375 62.5 499.9843750000001C62.5 500.803125 62.5021875 501.625 62.506875 502.44375C62.9771875 586.04375 87.39 667.759375 132.855625 737.9190625C178.3209375 808.0775 242.935625 863.740625 319.05 898.3199999999999C376.103125 924.2384375 437.8250000000001 937.49875 500.009375 937.5C520.78125 937.4996875 541.625 936.019375 562.34375 933.0371875C645.09375 921.1271875 722.7 885.758125 785.971875 831.1165625L682.428125 727.57125C639.703125 761.8196875 588.203125 783.3503125 533.8156250000001 789.7C479.428125 796.0496875 424.353125 786.961875 374.8875 763.4762499999999C325.425 739.9903125000001 283.57 703.0553124999999 254.1137500000001 656.8968749999999C224.6578125 610.7375 208.7896875 557.21875 208.325 502.465625C207.8603125 447.7125 222.8178125 393.93125 251.4859375 347.2781250000001C280.154375 300.6281250000001 321.375 262.9875000000001 370.434375 238.665625C419.49375 214.34375 474.40625 204.321875 528.8937500000001 209.7468750000001zM937.5 499.040625C937.5 499.2 937.5 499.3562499999999 937.5 499.515625C937.5 499.665625 937.5 499.815625 937.5 499.965625C937.5 500.15 937.5 500.334375 937.5 500.51875C937.5 500.584375 937.5 500.65 937.5 500.715625C937.478125 603.79375 900.915625 703.5350000000001 834.2937499999999 782.2121875L730.603125 678.521875C770.265625 627.4593749999999 791.753125 564.621875 791.6593750000001 499.965625C791.6593750000001 430.934375 767.6937499999999 367.496875 727.5875000000001 317.5218749999999L831.134375 213.975C899.690625 293.140625 937.44375 394.3375 937.5 499.040625z" />
    <glyph glyph-name="connect"
      unicode="&#xEA0E;"
      horiz-adv-x="1000" d="M341.803125 800.7890625C341.803125 772.8953125 333.7875 747.025 319.971875 725.36625L427.2375 614.065625C448.796875 628.875 474.096875 636.753125 499.959375 636.70625C526.853125 636.70625 551.796875 628.39375 572.68125 614.065625L680 725.36625C661.9812499999999 753.6340625 654.728125 787.833125 659.64375 821.333125C664.5593749999999 854.8328125 681.2906250000001 885.2465625 706.6 906.678125C731.90625 928.109375 763.984375 939.0315625 796.615625 937.3265625C829.246875 935.621875 860.103125 921.411875 883.20625 897.45125C906.309375 873.490625 920.0125 841.486875 921.65625 807.644375C923.3 773.801875 912.76875 740.531875 892.103125 714.2846875C871.440625 688.0378125 842.115625 670.684375 809.8156250000001 665.5875C777.5125 660.4875 744.540625 668.0125 717.284375 686.696875L610.0187500000001 575.45C623.834375 553.790625 631.85 527.865625 631.85 500.028125C631.85 472.134375 623.834375 446.2625000000001 610.0187500000001 424.603125L717.334375 313.303125C744.5906249999999 331.9875 777.5656250000001 339.509375 809.865625 334.4125C842.16875 329.315625 871.49375 311.9625 892.15625 285.7156250000001C912.821875 259.46875 923.353125 226.196875 921.709375 192.3562500000001C920.065625 158.5124999999999 906.3625 126.5093750000001 883.259375 102.5500000000001C860.15625 78.5875 829.3000000000001 64.378125 796.66875 62.671875C764.0375 60.96875 731.959375 71.890625 706.65 93.321875C681.34375 114.753125 664.609375 145.165625 659.696875 178.6656250000001C654.78125 212.165625 662.034375 246.365625 680.053125 274.634375L572.734375 385.9343750000001C551.171875 371.125 525.875 363.246875 500.0125 363.29375C473.115625 363.29375 448.171875 371.6062500000001 427.2875 385.9343750000001L319.971875 274.634375C337.9875 246.365625 345.240625 212.165625 340.328125 178.6656250000001C335.4125 145.165625 318.678125 114.753125 293.371875 93.321875C268.0643750000001 71.890625 235.985625 60.96875 203.355 62.671875C170.7240625 64.378125 139.8659375 78.5875 116.763125 102.5500000000001C93.6603125 126.5093750000001 79.9590625 158.5124999999999 78.3153125 192.3562500000001C76.6715625 226.196875 87.2025 259.46875 107.8665625 285.7156250000001C128.530625 311.9625 157.855625 329.315625 190.15625 334.4125C222.4565625 339.509375 255.43125 331.9875 282.6875 313.303125L390.00625 424.603125C375.7281250000001 446.95 368.1343750000001 473.16875 368.171875 499.971875C368.171875 527.865625 376.1875 553.7375 390.00625 575.3968749999999L282.74 686.696875C258.2546875000001 669.8875 229.05875 662.034375 199.781875 664.3875C170.505 666.7375 142.8234375 679.159375 121.1265625 699.6821875C99.4296875 720.2037499999999 84.9596875 747.650625 80.0109375 777.6696875C75.0621875 807.6890625 79.918125 838.5625 93.80875 865.394375C107.699375 892.2262499999999 129.8296875 913.480625 156.69 925.7871875C183.55 938.0934375 213.603125 940.7475 242.0828125 933.3284375C270.5628125 925.9090625 295.8390625 908.84125 313.903125 884.83125C331.96875 860.82125 341.7875 831.24375 341.803125 800.7890625z" />
    <glyph glyph-name="data-deduplication"
      unicode="&#xEA0F;"
      horiz-adv-x="1000" d="M732.421875 880.6671875C630.428125 880.6671875 527.34375 844.5734375 527.34375 775.940625V732.46375C545.65625 731.6190624999999 563.9093750000001 729.79375 582.028125 726.994375V775.940625C582.028125 793.7140625 639.178125 826.2528125 732.421875 826.2528125C825.6624999999999 826.2528125 882.8125 793.440625 882.8125 775.940625V493.478125C882.8125 478.7125 842.8875 454.1031250000001 776.171875 446.175V391.484375C861.75625 400.2375000000001 937.5 435.2375000000001 937.5 494.025V775.940625C937.5 844.5734375 834.4125 880.6671875 732.421875 880.6671875zM117.1875 493.475V775.9365625C117.1875 793.7109375 174.33625 826.25 267.5778125 826.25C360.8218750000001 826.25 417.96875 793.4375 417.96875 775.9365625V726.9925000000001C436.0875000000001 729.7915625 454.34375 731.6168749999999 472.65625 732.4596875V775.9365625C472.65625 844.84375 369.571875 880.9375 267.5778125 880.9375C165.5859375 880.9375 62.5 844.5703125 62.5 775.9365625V493.475C62.5 434.4125 138.2421875 399.6875 223.828125 390.6625V445.35C157.1096875 454.0999999999999 117.1875 478.709375 117.1875 493.475zM499.996875 695.545625C365.19375 695.545625 263.4740625 644.1375 263.4740625 575.778125V239.178125C263.4740625 170.8156250000001 365.19375 119.4125 499.996875 119.4125C634.803125 119.4125 736.521875 170.8156250000001 736.521875 239.178125V575.778125C736.521875 644.1375 634.803125 695.545625 499.996875 695.545625zM681.834375 485.8187499999999C658.5906249999999 458.4749999999999 588.31875 431.1312499999999 499.996875 431.1312499999999C463.053125 430.746875 426.2375 435.5343750000001 390.621875 445.35V405.428125C426.4125 396.6468749999999 463.15 392.3312500000001 499.996875 392.578125C563.359375 390.00625 626.2218750000001 404.7531250000001 681.834375 435.234375V349.921875C658.5906249999999 322.575 588.31875 295.23125 499.996875 295.23125C463.04375 294.9375 426.225 299.8156250000001 390.621875 309.725V269.803125C426.4125 261.0218749999999 463.15 256.7062500000001 499.996875 256.9500000000001C563.359375 254.38125 626.2218750000001 269.1281250000001 681.834375 299.60625V236.990625C681.834375 211.0125000000001 609.371875 171.9125 499.996875 171.9125C390.621875 171.9125 318.159375 211.0125000000001 318.159375 236.990625V575.778125C318.159375 601.7562499999999 390.621875 640.85625 499.996875 640.85625C609.371875 640.85625 681.834375 601.7562499999999 681.834375 575.778125V485.8187499999999z" />
    <glyph glyph-name="down"
      unicode="&#xEA10;"
      horiz-adv-x="1000" d="M260.9375 687.5L500 455.71875L739.0625 687.5L812.5 616.14375L500 312.5L187.5 616.14375L260.9375 687.5z" />
    <glyph glyph-name="envelope-check"
      unicode="&#xEA11;"
      horiz-adv-x="1000" d="M639.159375 127.146875L467.9625 298.3406250000001L520.021875 350.4000000000001L639.159375 231.265625L885.440625 477.546875L937.5 425.4875000000001L639.159375 127.146875zM476.975 586.671875L818.3625 801.9165625H135.5834375L476.975 586.671875zM62.5 216.2468749999999V875H892.4499999999999V572.653125L819.365625 499.571875V731.8365625L476.975 515.590625L135.5834375 731.8365625V289.3312500000001H390.875L463.959375 216.2468749999999H62.5z" />
    <glyph glyph-name="facebook-fill"
      unicode="&#xEA12;"
      horiz-adv-x="1000" d="M419.643125 625H312.5V500H419.643125V125H580.356875V500H677.85625L687.5 625H580.356875V677.0625C580.356875 706.9375 585.5 718.75 610.25 718.75H687.5V875H558.714375C462.393125 875 419.643125 825.5 419.643125 730.75V625z" />
    <glyph glyph-name="file-arrow-up"
      unicode="&#xEA13;"
      horiz-adv-x="1000" d="M463.00625 191.8562499999999H538.725V405.35L622.859375 321.2125L674.3937500000001 372.7468750000001L498.7625 543.11875L326.2875 370.6437500000001L376.765625 319.109375L463.00625 405.35V191.8562499999999zM147.5 62.5V937.5H599.7249999999999L852.1281250000001 686.1468749999999V62.5H147.5zM561.8625000000001 650.390625V860.7271875H224.2728125V139.271875H775.353125V650.390625H561.8625000000001z" />
    <glyph glyph-name="file-check"
      unicode="&#xEA14;"
      horiz-adv-x="1000" d="M451.4375 245.49375L703.840625 497.896875L654.4124999999999 547.325L452.4875 345.4031250000001L342.0625 455.828125L291.580625 405.35L451.4375 245.49375zM147.5 62.5V937.5H599.7249999999999L852.1281250000001 686.1468749999999V62.5H147.5zM561.8625000000001 650.390625V860.7271875H224.2728125V139.271875H775.353125V650.390625H561.8625000000001z" />
    <glyph glyph-name="file-user"
      unicode="&#xEA15;"
      horiz-adv-x="1000" d="M676.684375 372.7468750000001C639.525 372.7468750000001 607.9718750000001 385.71875 582.03125 411.6593750000001C556.0906249999999 437.6 543.11875 469.15 543.11875 506.309375C543.11875 542.76875 556.0906249999999 573.96875 582.03125 599.909375C607.9718750000001 625.85 639.525 638.821875 676.684375 638.821875C713.140625 638.821875 744.3406249999999 626.028125 770.28125 600.434375C796.2249999999999 574.84375 809.1968750000001 543.46875 809.1968750000001 506.309375C809.1968750000001 469.15 796.4 437.6 770.809375 411.6593750000001C745.21875 385.71875 713.840625 372.7468750000001 676.684375 372.7468750000001zM676.684375 449.51875C692.8093749999999 449.51875 706.128125 454.778125 716.646875 465.2937499999999C727.1625 475.8125 732.421875 489.484375 732.421875 506.309375C732.421875 522.4375 727.1625 535.7562499999999 716.646875 546.2750000000001C706.128125 556.790625 692.8093749999999 562.05 676.684375 562.05C659.85625 562.05 646.184375 556.790625 635.66875 546.2750000000001C625.15 535.7562499999999 619.8937500000001 522.4375 619.8937500000001 506.309375C619.8937500000001 489.484375 625.15 475.8125 635.66875 465.2937499999999C646.184375 454.778125 659.85625 449.51875 676.684375 449.51875zM416.9156250000001 62.5V257.0625C444.2593750000001 273.8875 472.48125 288.0875000000001 501.578125 299.653125C530.675 311.221875 561 320.8625000000001 592.5500000000001 328.575L676.684375 220.2531250000001L759.765625 328.575C791.315625 322.265625 821.4656249999999 312.8 850.2125000000001 300.18125C878.95625 287.559375 907.35 273.1875 935.396875 257.0625V62.5H416.9156250000001zM493.690625 139.271875H641.978125L563.1031250000001 241.2875L527.34375 224.459375C515.4250000000001 218.85 504.20625 212.5406250000001 493.690625 205.5281249999999V139.271875zM710.3375 139.271875H858.6218749999999V205.5281249999999C848.1062499999999 211.8375 837.0625 217.975 825.49375 223.9343750000001C813.925 229.890625 802.1843749999999 235.675 790.2624999999999 241.2875L710.3375 139.271875zM353.815625 147.6875H62.5V937.5H853.365625V592.546875C844.9499999999999 610.075 833.909375 625.325 820.2375 638.296875C806.565625 651.26875 792.01875 663.0093750000001 776.59375 673.528125V860.7271875H139.2728125V224.459375H353.815625V147.6875zM239.1828125 687.2H606.21875C616.734375 692.1065625 628.1281250000001 695.6131250000001 640.4 697.71625C652.66875 699.8196875 664.7625 701.2228125 676.684375 701.923125V763.9725H239.1828125V687.2zM239.1828125 504.20625H480.015625C480.015625 516.828125 481.246875 529.796875 483.7 543.11875C486.153125 556.440625 490.184375 569.059375 495.79375 580.9781250000001H239.1828125V504.20625zM239.1828125 320.1625H408.503125L484.225 352.765625V396.934375H239.1828125V320.1625zM353.815625 224.459375H139.2728125V860.7271875H776.59375V673.528125C761.86875 682.640625 746.09375 689.6540625 729.2687500000001 694.56125C712.4406250000001 699.4684374999999 694.9125 701.923125 676.684375 701.923125C621.996875 701.923125 575.546875 682.8187499999999 537.334375 644.60625C499.125 606.39375 480.015625 560.296875 480.015625 506.309375C480.015625 481.06875 484.575 457.0562500000001 493.690625 434.26875C502.80625 411.484375 515.4250000000001 391.3250000000001 531.55 373.796875L353.815625 297.025V224.459375z" />
    <glyph glyph-name="file"
      unicode="&#xEA16;"
      horiz-adv-x="1000" d="M147.44 147.440625H852.559375V596.575L596.578125 852.5596875H147.44V147.440625zM62.5 62.5V937.5H631.484375L937.5 631.48125V62.5H62.5zM256.815 263.796875H743.184375V348.7375000000001H256.815V263.796875zM256.815 458.1125000000001H743.184375V543.053125H256.815V458.1125000000001zM256.815 651.2625H581.45V736.2034375000001H256.815V651.2625z" />
    <glyph glyph-name="google-ads"
      unicode="&#xEA17;"
      horiz-adv-x="1000" d="M510.1750000000001 898.395625C482.321875 900.3853125 453.271875 894.0184375 427.40625 878.896875C410.7906250000001 869.3831250000001 396.215625 856.6834375 384.51875 841.525625C372.8218750000001 826.3678125 364.23125 809.0503125 359.240625 790.5659375C354.25 772.08125 352.95625 752.7934375 355.4343750000001 733.808125C357.9125 714.8225 364.115625 696.51375 373.684375 679.93125L665.7687500000001 174.553125C705.9593749999999 104.515625 795.0968750000001 81.4375 865.134375 121.2312500000001C934.771875 161.021875 957.853125 250.5593750000001 918.059375 320.1968750000001L626.771875 825.57375C614.740625 846.2925 597.828125 863.7578125 577.509375 876.449375C557.1875 889.14125 534.071875 896.6753125 510.1750000000001 898.395625zM294.0978125 687.8884375L82.396875 320.1968750000001C69.496875 298.0843749999999 62.6353125 272.975 62.5 247.375C62.5 228.196875 66.2775 209.2062500000001 73.616875 191.4875000000001C80.9559375 173.7687500000001 91.7134375 157.6687500000001 105.2746875 144.1062500000001C118.8359375 130.546875 134.9353125 119.7906250000001 152.6540625 112.4500000000001C170.3725 105.1125000000001 189.3634375 101.334375 208.541875 101.334375C234.1409375 101.4093750000001 259.2696875000001 108.21875 281.4096875 121.0687499999999C303.54875 133.9187499999999 321.921875 152.3656249999999 334.6875 174.553125V174.15625L460.434375 392.2218750000001C406.7125 483.746875 351.796875 574.875 302.454375 669.184375C299.2709375 675.153125 296.4853125 681.521875 294.495625 687.8884375H294.0978125z" />
    <glyph glyph-name="instagram"
      unicode="&#xEA18;"
      horiz-adv-x="1000" d="M319.604375 934.801875C366.34375 936.989375 381.145625 937.5 500 937.5C618.854375 937.5 633.7312499999999 936.989375 680.46875 934.801875C839.425 927.583125 927.73125 839.135625 934.875 680.395625C936.9875 633.65625 937.5 618.78125 937.5 500C937.5 381.145625 936.9875 366.2687500000001 934.875 319.60625C927.73125 160.5750000000001 839.1374999999999 72.4187499999999 680.46875 65.125C633.7312499999999 63.0125000000001 618.854375 62.5 500 62.5C381.145625 62.5 366.34375 63.0125000000001 319.604375 65.125C160.645625 72.4187499999999 72.416875 160.71875 65.125 319.60625C63.010625 366.2687500000001 62.5 381.145625 62.5 500C62.5 618.78125 63.010625 633.65625 65.125 680.395625C72.416875 839.354375 160.645625 927.510625 319.604375 934.801875zM676.8375 856.071875C630.68125 858.18625 616.8262500000001 858.62375 500.01375 858.62375C383.20125 858.62375 369.346875 858.259375 323.26375 856.1443750000001C204.555 850.74875 149.284375 794.53 143.88875 676.7693750000001C141.846875 630.68625 141.33625 616.831875 141.33625 500.019375C141.33625 383.206875 141.846875 369.3499999999999 143.88875 323.26875C149.3575 205.8 204.409375 149.3625 323.26375 143.8937500000001C369.346875 141.78125 383.20125 141.34375 500.01375 141.34375C616.8987500000001 141.34375 630.68125 141.85 676.8375 143.8937500000001C795.54375 149.2875 850.74375 205.65625 856.2125000000001 323.26875C858.25625 369.3499999999999 858.69375 383.206875 858.69375 500.019375C858.69375 616.831875 858.25625 630.613125 856.2125000000001 676.7693750000001C850.74375 794.456875 795.475 850.675625 676.8375 856.071875zM500.006875 724.5918750000001C375.975625 724.5918750000001 275.3506250000001 624.0393750000001 275.3506250000001 499.935625C275.3506250000001 375.83125 375.975625 275.28125 500.006875 275.28125C624.038125 275.28125 724.6625 375.83125 724.6625 499.935625C724.6625 623.966875 624.038125 724.5918750000001 500.006875 724.5918750000001zM354.143125 500.03C354.143125 580.53 419.40375 645.86375 499.97625 645.86375C580.47625 645.86375 645.8812499999999 580.603125 645.8812499999999 500.03C645.8812499999999 419.4575 580.47625 354.19375 499.97625 354.19375C419.40375 354.19375 354.143125 419.4575 354.143125 500.03zM733.4562500000001 786.065625C704.525 786.065625 680.9875 762.586875 680.9875 733.565625C680.9875 704.618125 704.45625 681.065625 733.4562500000001 681.065625C762.4625000000001 681.065625 786.00625 704.545 786.00625 733.565625C786.00625 762.586875 762.5375 786.065625 733.4562500000001 786.065625z" />
    <glyph glyph-name="landmark"
      unicode="&#xEA19;"
      horiz-adv-x="1000" d="M62.5 125.015625H937.5V62.515625H62.5V125.015625zM843.75 656.2625C852.034375 656.2625 859.984375 659.5562500000001 865.85 665.4156250000001C871.7062500000001 671.2750000000001 875 679.225 875 687.5134375V781.2634375C875 787.685625 873.015625 793.95125 869.328125 799.2071875C865.634375 804.4634375 860.415625 808.455 854.378125 810.6384375L510.625 935.6384375C503.759375 938.120625 496.240625 938.120625 489.375 935.6384375L145.625 810.6384375C139.585 808.455 134.365 804.4634375 130.674375 799.2071875C126.984375 793.95125 125.0028125 787.685625 125 781.2634375V687.5134375C125 679.225 128.2921875 671.2750000000001 134.1528125 665.4156250000001C140.0134375 659.5562500000001 147.9621875 656.2625 156.25 656.2625H187.5V250.015625H125V187.515625H875V250.015625H812.5V656.2625H843.75zM187.5 759.3884375L500 873.1384375L812.5 759.3884375V718.7634375H187.5V759.3884375zM562.5 250.015625H437.5V656.2625H562.5V250.015625zM250 656.2625H375V250.015625H250V656.2625zM750 250.015625H625V656.2625H750V250.015625z" />
    <glyph glyph-name="layout"
      unicode="&#xEA1A;"
      horiz-adv-x="1000" d="M62.5 451.3875H451.3875V937.5H62.5V451.3875zM62.5 62.5H451.3875V354.1656250000001H62.5V62.5zM548.6125 62.5H937.5V548.6125H548.6125V62.5zM548.6125 937.5V645.834375H937.5V937.5H548.6125z" />
    <glyph glyph-name="lightbulb"
      unicode="&#xEA1B;"
      horiz-adv-x="1000" d="M372.915625 106.25C372.915625 84.375 389.584375 62.5 414.584375 62.5H581.25C606.25 62.5 622.9187499999999 84.375 622.9187499999999 106.25V150H372.915625V106.25zM497.915625 937.5C335.415625 937.5 206.2503125 801.875 206.2503125 631.25C206.2503125 526.25 256.2503125 434.375 331.25 381.875V281.25C331.25 259.375 347.9156250000001 237.5 372.915625 237.5H622.9187499999999C647.9187499999999 237.5 664.5812500000001 259.375 664.5812500000001 281.25V381.875C739.5843749999999 438.75 789.584375 530.625 789.584375 631.25C789.584375 801.875 660.415625 937.5 497.915625 937.5z" />
    <glyph glyph-name="linkedin-fill"
      unicode="&#xEA1C;"
      horiz-adv-x="1000" d="M125 812.340625C125 828.95875 131.601875 844.896875 143.3525 856.6475C155.103125 868.3981249999999 171.040625 875 187.659375 875H812.275C820.50625 875.013125 828.6625 873.4025 836.275 870.25875C843.8875 867.115625 850.80625 862.501875 856.6312499999999 856.681875C862.4625 850.86125 867.0812500000001 843.949375 870.23125 836.340625C873.3874999999999 828.731875 875.00625 820.5762500000001 875 812.340625V187.725C875.00625 179.4875000000001 873.39375 171.3312500000001 870.24375 163.71875C867.1 156.1062500000001 862.4812499999999 149.1875 856.6625 143.3625C850.8375 137.5375 843.9250000000001 132.9187499999999 836.3125 129.76875C828.7 126.6125000000001 820.54375 124.99375 812.30625 125H187.659375C179.4275 125 171.276875 126.61875 163.6725 129.775C156.068125 132.925 149.159375 137.5437499999999 143.340625 143.3625C137.52125 149.1875 132.906875 156.1 129.76 163.7062500000001C126.613125 171.3125 124.995625 179.4625 125 187.69375V812.340625zM421.86375 589.045625V229.7249999999999H531.2275V403.795625C531.2275 462.125 552.704375 499.25 604.3525 499.25C641.58125 499.25 656.2375000000001 464.818125 656.2375000000001 403.795625V229.7249999999999H765.56875V428.2043750000001C765.56875 535.3525 739.96875 593.75 631.9312500000001 593.75C575.579375 593.75 538.079375 567.36375 523.420625 538.045625V589.045625H421.86375zM234.36375 234.4000000000001H343.7275V593.75H234.36375V234.43125V234.4000000000001zM359.375 710.954375V710.954375C358.9700000000001 729.3343749999999 351.3843750000001 746.825 338.2425 759.68125C325.100625 772.536875 307.4468750000001 779.735625 289.0625 779.735625C270.678125 779.735625 253.024375 772.536875 239.8825 759.68125C226.740625 746.825 219.155 729.3343749999999 218.75 710.954375C218.54375 701.590625 220.21 692.28 223.650625 683.56875C227.091875 674.8575000000001 232.238125 666.9212500000001 238.7875 660.2262499999999C245.336875 653.530625 253.158125 648.2112500000001 261.79125 644.579375C270.424375 640.9475 279.69625 639.076875 289.0625 639.076875C298.4287500000001 639.076875 307.700625 640.9475 316.33375 644.579375C324.966875 648.2112500000001 332.788125 653.530625 339.3375000000001 660.2262499999999C345.886875 666.9212500000001 351.033125 674.8575000000001 354.474375 683.56875C357.915 692.28 359.58125 701.590625 359.375 710.954375z" />
    <glyph glyph-name="megaphone"
      unicode="&#xEA1D;"
      horiz-adv-x="1000" d="M762.5 499.7875C762.5 475.7249999999999 782.1875 456.0375 806.25 456.0375H893.75C917.8125 456.0375 937.5 475.7249999999999 937.5 499.7875C937.5 523.8499999999999 917.8125 543.5375 893.75 543.5375H806.25C782.1875 543.5375 762.5 523.8499999999999 762.5 499.7875zM700.8125 288.915625C697.378125 284.43125 694.875 279.309375 693.453125 273.84375C692.03125 268.3781250000001 691.71875 262.684375 692.5343750000001 257.096875C693.35 251.5093750000001 695.2781249999999 246.14375 698.203125 241.3125C701.128125 236.484375 704.990625 232.2875 709.5625 228.975C732.75 211.9124999999999 757.25 193.5375 780.4375 176.0374999999999C799.6875 161.5999999999999 826.8125 165.5375 840.8125 184.7875C840.8125 185.225 841.25 185.225 841.25 185.6624999999999C844.684375 190.1843749999999 847.184375 195.34375 848.60625 200.8406250000001C850.028125 206.3375 850.3375 212.0656250000001 849.525 217.6843750000001C848.709375 223.303125 846.7843750000001 228.703125 843.8625 233.571875C840.9375 238.440625 837.075 242.678125 832.5 246.0375C809.3125 263.5375 784.8125 281.9125 762.0625 298.975C757.46875 302.371875 752.25 304.828125 746.7062500000001 306.203125C741.1624999999999 307.5812500000001 735.3968749999999 307.846875 729.75 306.99375C724.103125 306.140625 718.675 304.18125 713.7843750000001 301.23125C708.89375 298.278125 704.6343750000001 294.3875000000001 701.25 289.7875C701.25 289.35 700.8125 288.915625 700.8125 288.915625zM841.6875 814.3503125C841.6875 814.7878125 841.25 814.7878125 841.25 815.2253125C837.88125 819.7928125 833.640625 823.64625 828.771875 826.5625C823.90625 829.4784375 818.50625 831.3990625 812.8874999999999 832.213125C807.271875 833.026875 801.55 832.718125 796.05625 831.30375C790.5593749999999 829.8896875 785.4 827.39875 780.875 823.975C757.6875 806.4753125 732.75 788.1003125 710 770.6C690.75 756.161875 687.25 729.0378125 701.6875 710.2259375000001C701.6875 709.7871875000001 702.125 709.7871875000001 702.125 709.3509375C716.5625 690.100625 743.25 686.1625 762.5 700.5996875000001C785.6875 717.6634375 810.1875 736.4749999999999 833.375 753.9753125C852.1875 767.9746875000001 855.6875 795.10125 841.6875 814.3503125zM325 631.0374999999999H150C101.875 631.0374999999999 62.5 591.6624999999999 62.5 543.5375V456.0375C62.5 407.9125 101.875 368.5374999999999 150 368.5374999999999H193.75V237.2875C193.75 213.228125 213.4378125 193.5375 237.5003125 193.5375C261.5625 193.5375 281.2493750000001 213.228125 281.2493750000001 237.2875V368.5374999999999H325L543.75 237.2875V762.2875L325 631.0374999999999zM653.125 499.7875C653.125 557.975 627.75 610.4749999999999 587.5 646.3499999999999V353.6625C627.75 389.1 653.125 441.6 653.125 499.7875z" />
    <glyph glyph-name="meta"
      unicode="&#xEA1E;"
      horiz-adv-x="1000" d="M665.96875 816.138125C742.6843749999999 821.4200000000001 801.959375 776.6487500000001 841.40625 725.0021875C881.15 672.89375 908.521875 604.85625 923.571875 537.95C938.5375 471.046875 942.5625 399.1531250000001 930.1125 337.8625C918.165625 279.00625 886.2624999999999 211.6812500000001 814.115625 190.09375C746.20625 169.803125 686.678125 199.315625 644.253125 235.03125C601.6625 270.875 565.609375 321.09375 537.2718749999999 368.171875C524.015625 390.290625 511.571875 412.890625 499.9625 435.915625C488.365625 412.9031250000001 475.934375 390.3218750000001 462.69375 368.2156250000001C434.35625 321.09375 398.303125 270.875 355.7125 235.03125C313.246875 199.315625 253.7615625 169.803125 185.85 190.09375C113.704375 211.6812500000001 81.8021875 278.9656250000001 69.855 337.8625C57.44625 399.1531250000001 61.4709375 471.046875 76.4365625 537.95C91.4440625 604.85625 118.8184375 672.9375 158.60125 725.0021875C198.0071875 776.6487500000001 257.283125 821.4200000000001 333.9968750000001 816.138125C405.934375 811.1075000000001 458.209375 762.35375 490.78125 721.0196875L500.003125 708.9046875L509.184375 721.0615625C541.75625 762.35375 594.03125 811.149375 665.96875 816.138125zM325.278125 690.6690625C307.67125 691.8846874999999 284.615 682.871875 258.5406250000001 648.6656250000001C232.80125 614.91875 211.4215625 565.115625 199.13875 510.409375C186.8978125 455.703125 185.0953125 402.296875 193.1021875 362.8468750000001C200.0190625 328.89375 211.128125 316.69375 217.919375 312.41875L220.77 310.9906249999999L221.901875 310.5718750000001C231.6275 307.6375000000001 247.64125 308.4781250000001 274.7215625 331.28125C301.760625 354.003125 329.34375 390.515625 354.959375 433.025C366.359375 452.0125 376.9656250000001 471.465625 386.48125 490.1625L397.38125 512.16875L407.1500000000001 533.00625L415.784375 552.203125L423.121875 569.265625L429.115625 583.771875C421.00625 600.0625 411.715625 615.7406249999999 401.321875 630.6812500000001C374.3250000000001 669.08125 347.2437500000001 689.1178124999999 325.278125 690.6271875V690.6690625zM674.6875 690.6690625C652.721875 689.1178124999999 625.640625 669.08125 598.6437500000001 630.6812500000001C588.25 615.7406249999999 578.9625000000001 600.0625 570.85 583.771875L580.365625 561.009375L588.33125 542.815625L592.815625 533.00625L602.625 512.16875L613.525 490.1625C623.040625 471.465625 633.60625 452.0125 645.009375 433.025C670.621875 390.515625 698.246875 354.003125 725.203125 331.28125C750.3968749999999 310.06875 765.990625 307.890625 775.928125 310.028125L778.10625 310.5718750000001C783.55625 312.25 798.35625 321.0125000000001 806.865625 362.890625C814.83125 402.296875 813.109375 455.703125 800.828125 510.45C788.5875 565.115625 767.20625 614.91875 741.425 648.6656250000001C715.309375 682.871875 692.29375 691.8428125 674.6875 690.6690625z" />
    <glyph glyph-name="newspaper"
      unicode="&#xEA1F;"
      horiz-adv-x="1000" d="M62.5 893.749375V237.5C62.5 165.1375000000001 121.3875 106.25 193.7496875 106.25H806.25C878.21875 106.25 937.5 165.53125 937.5 237.5V718.7493750000001H850V237.5C850 212.7781250000001 830.96875 193.75 806.25 193.75C782.1 193.75 762.4968749999999 213.3937500000001 762.4968749999999 237.5V893.749375H62.5zM237.5 762.499375H587.5V631.25H237.5V762.499375zM237.5 500H587.5V412.5H237.5V500zM237.5 325H587.5V237.5H237.5V325z" />
    <glyph glyph-name="rotate"
      unicode="&#xEA20;"
      horiz-adv-x="1000" d="M70.98375 62.5V158.9875H238.845L228.2709375 166.9187500000001C171.8771875 214.5 130.4615625 264.728125 104.0275 317.596875C77.5925 370.46875 64.375 430.3875000000001 64.375 497.35625C64.375 595.165625 93.6740625 683.0625 152.2703125 761.0459375C210.86875 839.0290625 287.75 891.23875 382.915625 917.67375V817.2203125C315.9468750000001 792.5484375 262.1978125 750.9134375 221.6621875 692.3146875C181.129375 633.715625 160.861875 568.73125 160.861875 497.35625C160.861875 444.4875000000001 170.3359375 398.225 189.279375 358.571875C208.2253125 318.9187500000001 233.9996875 284.9968750000001 266.601875 256.796875L300.9675 234.328125V388.971875H397.45625V62.5H70.98375zM616.865625 81.003125V182.7781250000001C684.715625 206.571875 738.6906250000001 247.9875000000001 778.78125 307.025C818.875 366.0625 838.921875 431.7093749999999 838.921875 503.965625C838.921875 542.7375 829.0062499999999 583.26875 809.18125 625.565625C789.3562499999999 667.8625 764.4625000000001 704.8715625 734.5031250000001 736.5934374999999L701.459375 765.671875V611.028125H604.9718750000001V937.5H931.44375V841.011875H762.259375L772.8343749999999 830.4378125000001C827.4656249999999 780.2112500000001 868.2218750000001 726.4609375 895.09375 669.184375C921.971875 611.90625 935.409375 556.8343749999999 935.409375 503.965625C935.409375 405.2750000000001 906.109375 316.9375 847.5125 238.953125C788.915625 160.971875 712.03125 108.31875 616.865625 81.003125z" />
    <glyph glyph-name="route"
      unicode="&#xEA21;"
      horiz-adv-x="1000" d="M806.51875 105.578125C775.7406249999999 105.578125 748.5437499999999 114.88125 724.921875 133.490625C701.303125 152.1 686.63125 174.646875 680.90625 201.128125H459.740625C411.06875 201.128125 371.165625 216.696875 340.03125 247.83125C308.895625 278.9656250000001 293.328125 318.8718750000001 293.328125 367.540625C293.328125 416.2125 308.895625 456.29375 340.03125 487.7843750000001C371.165625 519.278125 411.06875 535.025 459.740625 535.025H542.409375C571.0375 535.025 594.478125 543.971875 612.7312499999999 561.8656249999999C630.98125 579.7593750000001 640.1062499999999 603.0218749999999 640.1062499999999 631.65C640.1062499999999 660.28125 630.98125 683.721875 612.7312499999999 701.9728124999999C594.478125 720.224375 571.0375 729.35 542.409375 729.35H319.09375C311.9384375 702.8675 296.7271875 680.3218750000001 273.46625 661.7125C250.2046875000001 643.103125 223.1853125 633.796875 192.4078125 633.796875C155.905 633.796875 125.1278125 646.325 100.0765625 671.375C75.025625 696.4259374999999 62.5 727.2028124999999 62.5 763.7059375C62.5 800.2090625000001 75.025625 831.165 100.0765625 856.5740625000001C125.1278125 881.983125 155.905 894.6875 192.4078125 894.6875C223.1853125 894.6875 250.2046875000001 885.2040625 273.46625 866.2365625C296.7271875 847.269375 311.9384375 824.9021875 319.09375 799.1353125H542.409375C591.078125 799.1353125 631.159375 783.3890625 662.6531249999999 751.89625C694.146875 720.4034375 709.89375 680.3218750000001 709.89375 631.65C709.89375 582.98125 694.146875 543.078125 662.6531249999999 511.940625C631.159375 480.80625 591.078125 465.2406249999999 542.409375 465.2406249999999H459.740625C431.109375 465.2406249999999 407.846875 456.1125000000001 389.953125 437.8625000000001C372.0625 419.609375 363.1125 396.171875 363.1125 367.540625C363.1125 338.909375 372.0625 315.65 389.953125 297.753125C407.846875 279.8625000000001 431.109375 270.915625 459.740625 270.915625H680.90625C687.3468750000001 296.68125 702.2 319.05 725.459375 338.015625C748.721875 356.984375 775.7406249999999 366.4656250000001 806.51875 366.4656250000001C843.021875 366.4656250000001 873.9781250000001 353.7625 899.3875 328.353125C924.79375 302.9437499999999 937.5 271.9875000000001 937.5 235.484375C937.5 198.9812500000001 924.79375 168.20625 899.3875 143.1531250000001C873.9781250000001 118.103125 843.021875 105.578125 806.51875 105.578125zM192.4078125 712.1721875000001C206.7228125 712.1721875000001 219.0696875 717.0034375 229.4478125 726.6659375C239.82625 736.3287499999999 245.0153125 748.6753125 245.0153125 763.7059375C245.0153125 778.0209375 239.82625 790.3675000000001 229.4478125 800.7459375C219.0696875 811.124375 206.7228125 816.3134375 192.4078125 816.3134375C178.093125 816.3134375 165.9253125 811.124375 155.905 800.7459375C145.8846875 790.3675000000001 140.8740625 778.0209375 140.8740625 763.7059375C140.8740625 749.39125 145.705625 737.2234375 155.368125 727.2028124999999C165.030625 717.1825 177.3771875 712.1721875000001 192.4078125 712.1721875000001z" />
    <glyph glyph-name="search"
      unicode="&#xEA22;"
      horiz-adv-x="1000" d="M687.8562499999999 387.1843750000001H648.334375L634.328125 400.6937499999999C683.35625 457.725 712.871875 531.76875 712.871875 612.315625C712.871875 791.916875 567.2874999999999 937.5 387.6843750000001 937.5C208.083125 937.5 62.5 791.916875 62.5 612.315625C62.5 432.7125000000001 208.083125 287.128125 387.6843750000001 287.128125C468.23125 287.128125 542.275 316.64375 599.3062500000001 365.671875L612.815625 351.665625V312.1437500000001L862.95625 62.5L937.5 137.0437500000001L687.8562499999999 387.1843750000001zM387.6843750000001 387.1843750000001C263.1146875 387.1843750000001 162.5571875 487.74375 162.5571875 612.315625C162.5571875 736.8853125 263.1146875 837.4428125 387.6843750000001 837.4428125C512.25625 837.4428125 612.815625 736.8853125 612.815625 612.315625C612.815625 487.74375 512.25625 387.1843750000001 387.6843750000001 387.1843750000001z" />
    <glyph glyph-name="server"
      unicode="&#xEA23;"
      horiz-adv-x="1000" d="M288.37 797.4565625C271.0003125 797.4565625 256.3446875 791.485625 244.403125 779.5440625C232.46125 767.6021875 226.4903125 752.9465625 226.4903125 735.5771875C226.4903125 718.2071875 232.46125 703.5515625 244.403125 691.61C256.3446875 679.66875 271.0003125 673.696875 288.37 673.696875C305.7409375 673.696875 320.396875 679.66875 332.3375000000001 691.61C344.28125 703.5515625 350.25 718.2071875 350.25 735.5771875C350.25 752.9465625 344.28125 767.6021875 332.3375000000001 779.5440625C320.396875 791.485625 305.7409375 797.4565625 288.37 797.4565625zM288.37 327.3875000000001C271.0003125 327.3875000000001 256.3446875 321.41875 244.403125 309.4749999999999C232.46125 297.5343750000001 226.4903125 282.878125 226.4903125 265.5093750000001C226.4903125 248.1375000000001 232.46125 233.484375 244.403125 221.5406250000001C256.3446875 209.6 271.0003125 203.6281250000001 288.37 203.6281250000001C305.7409375 203.6281250000001 320.396875 209.6 332.3375000000001 221.5406250000001C344.28125 233.484375 350.25 248.1375000000001 350.25 265.5093750000001C350.25 282.878125 344.28125 297.5343750000001 332.3375000000001 309.4749999999999C320.396875 321.41875 305.7409375 327.3875000000001 288.37 327.3875000000001zM91.875 532.5687499999999V937.5H908.25V532.5687499999999H91.875zM171.124375 858.250625V611.81875H829.003125V858.250625H171.124375zM91.875 62.5V468.51875H908.25V62.5H91.875zM171.124375 389.2687500000001V141.75H829.003125V389.2687500000001H171.124375z" />
    <glyph glyph-name="stats-search"
      unicode="&#xEA24;"
      horiz-adv-x="1000" d="M119.4184375 291.9968750000001L62.5 334.44375L250.6203125 635.4375L365.421875 500.375L520.7406249999999 750.2378125L636.50625 579.48125C624.2875 576.909375 612.228125 573.8531250000001 600.33125 570.3187499999999C588.43125 566.78125 577.0187500000001 562.11875 566.084375 556.328125L523.634375 620.965625L377.9625 381.7156250000001L260.2675 517.740625L119.4184375 291.9968750000001zM887.334375 80.7218750000001L757.096875 210.9593749999999C742.95 201.3125 728.15625 194.2375 712.721875 189.7375C697.284375 185.234375 681.528125 182.984375 665.4499999999999 182.984375C617.85625 182.984375 577.659375 199.384375 544.859375 232.1843750000001C512.0593749999999 264.984375 495.659375 305.18125 495.659375 352.775C495.659375 400.3656249999999 512.0593749999999 440.7218750000001 544.859375 473.846875C577.659375 506.96875 617.85625 523.528125 665.4499999999999 523.528125C713.0437499999999 523.528125 753.4 506.96875 786.521875 473.846875C819.64375 440.7218750000001 836.203125 400.3656249999999 836.203125 352.775C836.203125 336.05 833.63125 319.9718750000001 828.4875000000001 304.5375C823.340625 289.103125 816.26875 274.309375 807.2625 260.159375L937.5 130.8875000000001L887.334375 80.7218750000001zM665.4499999999999 253.40625C693.1031250000001 253.40625 716.740625 263.05625 736.35625 282.35C755.971875 301.64375 765.78125 325.11875 765.78125 352.775C765.78125 380.428125 755.971875 404.0625 736.35625 423.68125C716.740625 443.296875 693.1031250000001 453.1031250000001 665.4499999999999 453.1031250000001C637.79375 453.1031250000001 614.31875 443.296875 595.025 423.68125C575.73125 404.0625 566.084375 380.428125 566.084375 352.775C566.084375 325.11875 575.73125 301.64375 595.025 282.35C614.31875 263.05625 637.79375 253.40625 665.4499999999999 253.40625zM742.628125 569.834375C729.7624999999999 574.3375 716.9031249999999 577.23125 704.0375 578.51875C691.175 579.8062500000001 678.3125 580.76875 665.4499999999999 581.4125L879.615625 919.0634375L937.5 876.6159375L742.628125 569.834375z" />
    <glyph glyph-name="store"
      unicode="&#xEA25;"
      horiz-adv-x="1000" d="M324.9625 325.0125000000001C340.434375 325.0125000000001 355.271875 331.1593750000001 366.2125 342.0999999999999C377.153125 353.040625 383.3 367.878125 383.3 383.35C383.3 398.821875 377.153125 413.6625 366.2125 424.603125C355.271875 435.540625 340.434375 441.6875 324.9625 441.6875C309.48875 441.6875 294.650625 435.540625 283.7103125 424.603125C272.7703125 413.6625 266.62375 398.821875 266.62375 383.35C266.62375 367.878125 272.7703125 353.040625 283.7103125 342.0999999999999C294.650625 331.1593750000001 309.48875 325.0125000000001 324.9625 325.0125000000001zM558.309375 383.35C558.309375 367.878125 552.165625 353.040625 541.2249999999999 342.0999999999999C530.2843750000001 331.1593750000001 515.44375 325.0125000000001 499.975 325.0125000000001C484.5 325.0125000000001 469.6625 331.1593750000001 458.721875 342.0999999999999C447.78125 353.040625 441.6375 367.878125 441.6375 383.35C441.6375 398.821875 447.78125 413.6625 458.721875 424.603125C469.6625 435.540625 484.5 441.6875 499.975 441.6875C515.44375 441.6875 530.2843750000001 435.540625 541.2249999999999 424.603125C552.165625 413.6625 558.309375 398.821875 558.309375 383.35zM674.984375 325.0125000000001C690.45625 325.0125000000001 705.29375 331.1593750000001 716.234375 342.0999999999999C727.1750000000001 353.040625 733.321875 367.878125 733.321875 383.35C733.321875 398.821875 727.1750000000001 413.6625 716.234375 424.603125C705.29375 435.540625 690.45625 441.6875 674.984375 441.6875C659.5124999999999 441.6875 644.675 435.540625 633.734375 424.603125C622.79375 413.6625 616.646875 398.821875 616.646875 383.35C616.646875 367.878125 622.79375 353.040625 633.734375 342.0999999999999C644.675 331.1593750000001 659.5124999999999 325.0125000000001 674.984375 325.0125000000001zM212.078125 847.5128125C220.289375 857.4315624999999 230.588125 865.416875 242.24 870.8971875C253.8921875 876.3775 266.610625 879.2190625 279.4875 879.2190625H720.4875C733.36875 879.22375 746.096875 876.3840625 757.75 870.903125C769.4125 865.4228125 779.7125 857.4356250000001 787.925 847.5128125L924.003125 683.059375C955.471875 645.021875 928.403125 587.53125 879.053125 587.53125H849.9968749999999V215.63125C849.9968749999999 203.1843749999999 847.54375 190.8562499999999 842.78125 179.35C838.015625 167.85 831.034375 157.4031249999999 822.234375 148.5999999999999C813.4281249999999 139.7937500000001 802.9812499999999 132.8125 791.478125 128.046875C779.978125 123.2875 767.6500000000001 120.83125 755.196875 120.83125H244.746875C219.6053125 120.83125 195.4928125 130.81875 177.715 148.5999999999999C159.93625 166.375 149.9490625 190.490625 149.9490625 215.63125V587.53125H120.955C71.5725 587.53125 44.533125 645.021875 76.00625 683.059375L212.078125 847.5128125zM208.2865625 587.53125V215.63125C208.2865625 195.503125 224.6209375 179.1687499999999 244.746875 179.1687499999999H755.196875C775.325 179.1687499999999 791.6593750000001 195.503125 791.6593750000001 215.63125V587.53125H208.2865625zM279.4875 820.8815625C275.1971875 820.8815625 270.96 819.935 267.0778125 818.11C263.195625 816.2846875 259.7640625 813.6259375 257.0271875 810.3221875L120.955 645.86875H879.01875L742.95 810.3221875C740.2093749999999 813.6259375 736.78125 816.2846875 732.89375 818.11C729.015625 819.935 724.78125 820.8815625 720.4875 820.8815625H279.4875z" />
    <glyph glyph-name="target-blank"
      unicode="&#xEA26;"
      horiz-adv-x="1000" d="M791.66875 208.33125H208.333125V791.666875H500V875H208.333125C162.083125 875 125 837.5 125 791.666875V208.33125C125 162.5 162.083125 125 208.333125 125H791.66875C837.5 125 875 162.5 875 208.33125V500H791.66875V208.33125zM583.333125 875V791.666875H732.9187499999999L323.333125 382.083125L382.083125 323.33125L791.66875 732.916875V583.333125H875V875H583.333125z" />
    <glyph glyph-name="twitter-fill"
      unicode="&#xEA27;"
      horiz-adv-x="1000" d="M937.5 738.484375C905.34375 725.924375 870.7062500000001 717.465 834.3937500000001 713.62C871.5125 733.165625 899.875 764.053125 913.3625 800.90125C878.65625 782.829375 840.2312499999999 769.6925 799.3249999999999 762.64375C766.65625 793.339375 719.91875 812.5 668.3625 812.5C552.426875 812.5 467.260625 717.465 493.4375 618.7774999999999C344.323125 625.378125 211.979375 688.1793749999999 123.458125 783.59875C76.426875 712.723125 99.104375 619.93125 179.020625 572.958125C149.635625 573.79125 122 580.904375 97.791875 592.6956250000001C95.823125 519.64125 155.46875 451.265 241.801875 436.013125C216.573125 429.989375 188.864375 428.5793750000001 160.71875 433.321875C183.541875 370.6500000000001 249.96875 325.0875 328.426875 323.80625C252.8125 271.76875 157.801875 248.50625 62.5 258.375C141.979375 213.58125 236.260625 187.5 337.614375 187.5C670.9875 187.5 859.2625 434.9237500000001 847.8875 656.8425C883.03125 679.015625 913.4375 706.8275 937.5 738.484375z" />
    <glyph glyph-name="user-database"
      unicode="&#xEA28;"
      horiz-adv-x="1000" d="M769.990625 770.8334375C769.990625 678.75 622.096875 604.165625 439.684375 604.165625C257.270625 604.165625 109.375 678.75 109.375 770.8334375C109.375 862.9165625 257.270625 937.5 439.684375 937.5C622.096875 937.5 769.990625 862.9165625 769.990625 770.8334375zM677.8375 586.334375C611.1125 557.665625 527.915625 541.665625 439.684375 541.665625C340.921875 541.665625 248.5175 561.75 178.409375 597.084375C153.459375 609.446875 130.2453125 625.096875 109.375 643.625V270.8343749999999C109.375 178.75 257.270625 104.1656250000001 439.684375 104.1656250000001C462.475 104.1656250000001 484.6875 105.334375 506.159375 107.540625C489.634375 132.8093750000001 480.875 162.4375 480.971875 192.7093749999999V197C480.971875 212.171875 483.934375 227.19375 489.6875 241.2093749999999C495.44375 255.225 503.878125 267.959375 514.5093750000001 278.684375C525.140625 289.4124999999999 537.7625 297.9187500000001 551.6531249999999 303.71875C565.54375 309.5218749999999 580.43125 312.50625 595.465625 312.5H606.9031249999999C590.459375 328.753125 578.0999999999999 348.7375000000001 570.8562499999999 370.7843750000001C563.609375 392.83125 561.690625 416.30625 565.2531250000001 439.25625C568.8156250000001 462.203125 577.75625 483.9625 591.3375 502.715625C604.915625 521.471875 622.7375000000001 536.684375 643.31875 547.084375C659.503125 555.290625 673.459375 568.5843749999999 677.8375 586.334375zM811.28125 416.6656250000001C811.28125 389.040625 800.40625 362.5437500000001 781.046875 343.009375C761.690625 323.4749999999999 735.4343749999999 312.5 708.059375 312.5C680.684375 312.5 654.428125 323.4749999999999 635.071875 343.009375C615.7125 362.5437500000001 604.8375 389.040625 604.8375 416.6656250000001C604.8375 444.2937500000001 615.7125 470.7875 635.071875 490.325C654.428125 509.859375 680.684375 520.834375 708.059375 520.834375C735.4343749999999 520.834375 761.690625 509.859375 781.046875 490.325C800.40625 470.7875 811.28125 444.2937500000001 811.28125 416.6656250000001zM893.85625 192.7093749999999C893.85625 127.875 840.759375 62.5 708.059375 62.5C575.35625 62.5 522.259375 127.625 522.259375 192.7093749999999V197C522.259375 237.834375 555.0437499999999 270.8343749999999 595.465625 270.8343749999999H820.6531249999999C861.115625 270.8343749999999 893.85625 237.790625 893.85625 197V192.7093749999999z" />
    <glyph glyph-name="user-money"
      unicode="&#xEA29;"
      horiz-adv-x="1000" d="M325 537.41875C368.1 537.41875 409.428125 554.51875 439.903125 584.95625C470.378125 615.396875 487.5 656.678125 487.5 699.724375C487.5 742.7703125 470.378125 784.0534375 439.903125 814.4928125C409.428125 844.93125 368.1 862.0315625 325 862.0315625C281.901875 862.0315625 240.56875 844.93125 210.094375 814.4928125C179.620625 784.0534375 162.5 742.7703125 162.5 699.724375C162.5 656.678125 179.620625 615.396875 210.094375 584.95625C240.56875 554.51875 281.901875 537.41875 325 537.41875zM437.5 362.625C437.5 388.8093750000001 445.740625 414.3312500000001 461.05625 435.578125C476.371875 456.828125 497.9875 472.7281250000001 522.85 481.0343750000001C511.5531250000001 485.3031249999999 499.578125 487.484375 487.5 487.475H162.5C135.9784375 487.475 110.5428125 476.953125 91.789375 458.221875C73.035625 439.490625 62.5 414.0875000000001 62.5 387.596875C62.5 387.596875 62.5 187.834375 325 187.834375C369.85 187.834375 407 193.678125 437.85 203.315625C437.615625 206.471875 437.5 209.6375000000001 437.5 212.80625V362.625zM837.5 662.271875C837.5 629.15625 824.33125 597.4 800.8874999999999 573.9875C777.446875 550.571875 745.6500000000001 537.41875 712.5 537.41875C679.3468750000001 537.41875 647.5531249999999 550.571875 624.1125 573.9875C600.6687499999999 597.4 587.5 629.15625 587.5 662.271875C587.5 695.381875 600.6687499999999 727.1390624999999 624.1125 750.5525C647.5531249999999 773.9659375 679.3468750000001 787.1203125 712.5 787.1203125C745.6500000000001 787.1203125 777.446875 773.9659375 800.8874999999999 750.5525C824.33125 727.1390624999999 837.5 695.381875 837.5 662.271875zM487.5 362.625C487.5 382.49375 495.403125 401.546875 509.465625 415.596875C523.534375 429.64375 542.609375 437.5375 562.5 437.5375H862.5C882.390625 437.5375 901.46875 429.64375 915.53125 415.596875C929.6 401.546875 937.5 382.49375 937.5 362.625V212.80625C937.5 192.9375 929.6 173.88125 915.53125 159.834375C901.46875 145.7874999999999 882.390625 137.8937500000001 862.5 137.8937500000001H562.5C542.609375 137.8937500000001 523.534375 145.7874999999999 509.465625 159.834375C495.403125 173.88125 487.5 192.9375 487.5 212.80625V362.625zM537.5 362.625V312.6843750000001C557.390625 312.6843750000001 576.46875 320.578125 590.53125 334.6281250000001C604.6 348.675 612.5 367.728125 612.5 387.596875H562.5C562.5 380.9749999999999 559.865625 374.6218750000001 555.178125 369.9406250000001C550.4875000000001 365.2562499999999 544.1312499999999 362.625 537.5 362.625zM887.5 312.6843750000001V362.625C880.86875 362.625 874.5125 365.2562499999999 869.821875 369.9406250000001C865.134375 374.6218750000001 862.5 380.9749999999999 862.5 387.596875H812.5C812.5 367.728125 820.4 348.675 834.465625 334.6281250000001C848.53125 320.578125 867.609375 312.6843750000001 887.5 312.6843750000001zM812.5 187.834375H862.5C862.5 194.45625 865.134375 200.80625 869.821875 205.490625C874.5125 210.171875 880.86875 212.80625 887.5 212.80625V262.7437500000001C867.609375 262.7437500000001 848.53125 254.853125 834.465625 240.80625C820.4 226.75625 812.5 207.7000000000001 812.5 187.834375zM537.5 262.7437500000001V212.80625C544.1312499999999 212.80625 550.4875000000001 210.171875 555.178125 205.490625C559.865625 200.80625 562.5 194.45625 562.5 187.834375H612.5C612.5 207.7000000000001 604.6 226.75625 590.53125 240.80625C576.46875 254.853125 557.390625 262.7437500000001 537.5 262.7437500000001zM712.5 212.80625C732.390625 212.80625 751.46875 220.696875 765.534375 234.7468750000001C779.596875 248.7937500000001 787.5 267.8468750000001 787.5 287.7156250000001C787.5 307.5812500000001 779.596875 326.6375000000001 765.534375 340.6843750000001C751.46875 354.734375 732.390625 362.625 712.5 362.625C692.609375 362.625 673.5343750000001 354.734375 659.465625 340.6843750000001C645.4031249999999 326.6375000000001 637.5 307.5812500000001 637.5 287.7156250000001C637.5 267.8468750000001 645.4031249999999 248.7937500000001 659.465625 234.7468750000001C673.5343750000001 220.696875 692.609375 212.80625 712.5 212.80625z" />
    <glyph glyph-name="user-search-outline"
      unicode="&#xEA2A;"
      horiz-adv-x="1000" d="M398.8843750000001 584.50625C354.16875 584.50625 315.95625 600.359375 284.2534375 632.0625C252.55125 663.7625 236.6990625 701.64125 236.6990625 745.6912500000001C236.6990625 790.4090625 252.55125 828.4525 284.2534375 859.821875C315.95625 891.1909375 353.834375 906.875625 397.8843750000001 906.875625C442.6 906.875625 480.64375 891.3578125 512.0124999999999 860.3225C543.384375 829.286875 559.06875 791.4103125 559.06875 746.6925C559.06875 701.975625 543.55 663.7625 512.515625 632.0625C481.478125 600.359375 443.6 584.50625 398.8843750000001 584.50625zM397.8843750000001 657.590625C422.578125 657.590625 443.434375 666.265625 460.45625 683.621875C477.475 700.974375 485.984375 721.6640625 485.984375 745.6912500000001C485.984375 770.38625 477.475 791.2434375 460.45625 808.2628125C443.434375 825.2821875 422.9125 833.7921875 398.8843750000001 833.7921875C374.190625 833.7921875 353.165625 825.2821875 335.8125 808.2628125C318.459375 791.2434375 309.7825000000001 770.72 309.7825000000001 746.6925C309.7825000000001 721.9978125 318.459375 700.974375 335.8125 683.621875C353.165625 666.265625 373.85625 657.590625 397.8843750000001 657.590625zM886.440625 88.940625L745.28125 230.103125C729.928125 219.425 714.078125 212.08125 697.725 208.078125C681.3718749999999 204.071875 664.8531250000001 202.071875 648.1687499999999 202.071875C598.778125 202.071875 557.065625 219.0906249999999 523.025 253.1281250000001C488.9875 287.16875 471.96875 328.88125 471.96875 378.271875C471.96875 427.6624999999999 488.9875 469.5406250000001 523.025 503.915625C557.065625 538.2874999999999 598.778125 555.475 648.1687499999999 555.475C697.5593749999999 555.475 739.440625 538.2874999999999 773.8125 503.915625C808.1875 469.5406250000001 825.3718749999999 427.6624999999999 825.3718749999999 378.271875C825.3718749999999 360.91875 823.36875 344.2312500000001 819.365625 328.2156250000001C815.359375 312.1968750000001 807.684375 296.5125 796.3375 281.159375L937.5 140L886.440625 88.940625zM648.1687499999999 275.1531250000001C677.5375 275.1531250000001 702.2312499999999 285 722.2531250000001 304.6875C742.278125 324.375 752.2875 348.903125 752.2875 378.271875C752.2875 407.640625 742.278125 432.334375 722.2531250000001 452.35625C702.2312499999999 472.378125 677.5375 482.390625 648.1687499999999 482.390625C618.803125 482.390625 594.275 472.378125 574.584375 452.35625C554.8968749999999 432.334375 545.0500000000001 407.640625 545.0500000000001 378.271875C545.0500000000001 348.903125 554.8968749999999 324.375 574.584375 304.6875C594.275 285 618.803125 275.1531250000001 648.1687499999999 275.1531250000001zM62.5 208.078125V318.203125C62.5 344.2312500000001 68.67375 366.759375 81.02125 385.78125C93.36875 404.803125 111.2221875 420.3187499999999 134.5825 432.334375C171.2909375 451.021875 217.510625 467.2062500000001 273.2409375000001 480.8875C328.971875 494.571875 385.203125 498.74375 441.934375 493.403125C435.259375 482.05625 429.91875 470.209375 425.9156250000001 457.8625C421.909375 445.515625 418.90625 434 416.90625 423.321875C361.50625 425.99375 311.785 420.1531250000001 267.7346875 405.803125C223.6840625 391.453125 188.9778125 378.271875 163.615625 366.2593750000001C155.60625 361.5875 148.9321875 354.74375 143.5928125 345.734375C138.253125 336.725 135.5834375 327.546875 135.5834375 318.203125V281.159375H416.90625C428.91875 267.8125 440.096875 254.965625 450.44375 242.615625C460.790625 230.2687500000001 471.634375 218.75625 482.98125 208.078125H62.5z" />
    <glyph glyph-name="user-search"
      unicode="&#xEA2B;"
      horiz-adv-x="1000" d="M587.5031250000001 709.6353125C587.5031250000001 617.0125 509.15 541.925 412.5 541.925C315.85 541.925 237.50125 617.0125 237.50125 709.6353125C237.50125 802.2571875 315.85 877.34375 412.5 877.34375C509.15 877.34375 587.5031250000001 802.2571875 587.5031250000001 709.6353125zM62.5 290.3656249999999C62.5 404.8250000000001 308.3746875000001 461.846875 427.8125 457.65625C426.0625 453.4625 371.8125 322.23125 479.875 206.509375H62.5V290.3656249999999zM850.003125 374.2218750000001C850.003125 343.1937499999999 840.8125 314.2625000000001 825.0656250000001 289.5281250000001L937.5 181.775L875.815625 122.65625L763.375 230.4093750000001C737.5625 215.734375 707.375 206.509375 675 206.509375C578.315625 206.509375 500 281.559375 500 374.2218750000001C500 466.8781250000001 578.315625 541.9281249999999 675 541.9281249999999C771.6875 541.9281249999999 850.003125 466.8781250000001 850.003125 374.2218750000001zM587.5031250000001 374.2218750000001C587.5031250000001 328.0999999999999 626.875 290.3656249999999 675 290.3656249999999C723.125 290.3656249999999 762.5 328.0999999999999 762.5 374.2218750000001C762.5 420.3406250000001 723.125 458.071875 675 458.071875C626.875 458.071875 587.5031250000001 420.3406250000001 587.5031250000001 374.2218750000001z" />
    <glyph glyph-name="wand-magic-spartkles"
      unicode="&#xEA2C;"
      horiz-adv-x="1000" d="M819.9125 700.33125L782.04375 782.0446875L700.33125 819.9121875L782.04375 856.7828125L819.9125 937.5L856.7843750000001 856.7828125L937.5 819.9121875L856.7843750000001 782.0446875L819.9125 700.33125zM328.634375 700.33125L290.7665625 782.0446875L210.049375 819.9121875L290.7665625 856.7828125L328.634375 937.5L365.503125 856.7828125L447.21875 819.9121875L365.503125 782.0446875L328.634375 700.33125zM819.9125 210.05L782.04375 290.765625L700.33125 328.6343750000001L782.04375 365.50625L819.9125 447.21875L856.7843750000001 365.50625L937.5 328.6343750000001L856.7843750000001 290.765625L819.9125 210.05zM184.1403125 75.5218749999999L75.5209375 184.140625C67.5490625 192.1125000000001 63.230625 201.4125 62.5665625 212.0437499999999C61.9021875 222.671875 66.2203125 232.6375000000001 75.5209375 241.9375L540.890625 707.306875C549.5250000000001 715.9425 559.9875 720.2615625000001 572.28125 720.2615625000001C584.571875 720.2615625000001 595.034375 715.9425 603.6687499999999 707.306875L707.30625 603.66875C715.94375 595.034375 720.2625 584.5718750000001 720.2625 572.28125C720.2625 559.990625 715.94375 549.525 707.30625 540.890625L241.9378125 75.5218749999999C233.3015625 66.884375 223.66875 62.565625 213.0390625 62.565625C202.4096875 62.565625 192.776875 66.884375 184.1403125 75.5218749999999zM208.0565625 147.26875L523.95 462.165625L461.16875 524.946875L146.273125 209.0531249999999L208.0565625 147.26875z" />
    <glyph glyph-name="xmark-docs"
      unicode="&#xEA2D;"
      horiz-adv-x="1000" d="M937.5 849.3746874999999L849.375 937.5L500 588.125L150.6253125 937.5L62.5 849.3746874999999L411.875 500L62.5 150.6218750000001L150.6253125 62.4968750000001L500 411.875L849.375 62.4968750000001L937.5 150.6218750000001L588.125 500L937.5 849.3746874999999z" />
    <glyph glyph-name="xmark"
      unicode="&#xEA2E;"
      horiz-adv-x="1000" d="M926.015625 870.5671875C941.328125 885.8790625 941.328125 910.7040625 926.015625 926.0159375C910.709375 941.328125 885.884375 941.328125 870.571875 926.0159375L500 555.4468750000001L129.4328125 926.0159375C114.1209375 941.328125 89.295625 941.328125 73.98375 926.0159375C58.6721875 910.7040625 58.6721875 885.8790625 73.98375 870.5671875L444.553125 500L73.98375 129.4343750000001C58.6721875 114.1218750000001 58.6721875 89.296875 73.98375 73.984375C89.295625 58.671875 114.1209375 58.671875 129.4328125 73.984375L500 444.55L869.915625 74.634375C885.228125 59.321875 910.053125 59.321875 925.365625 74.634375C940.678125 89.946875 940.678125 114.771875 925.365625 130.084375L555.45 500L926.015625 870.5671875z" />
    <glyph glyph-name="youtube-fill"
      unicode="&#xEA2F;"
      horiz-adv-x="1000" d="M919.18125 714.4375C914.225 733.361875 904.575 750.495625 891.25625 764.01625C877.5562500000001 777.9525 860.775 787.921875 842.4812499999999 792.9825000000001C774.01875 812.30625 499.745 812.30625 499.745 812.30625C385.4025 813.699375 271.088125 807.571875 157.4475 793.958125C139.154375 788.5237500000001 122.399375 778.331875 108.6725 764.2893750000001C95.185 750.391875 85.415 733.25375 80.311875 714.4762499999999C68.0525 643.749375 62.0956875 571.934375 62.5225 500C62.0850625 428.130625 68.026875 356.3375 80.311875 285.525C85.305625 266.825 95.03875 249.7625000000001 108.563125 235.9812500000001C122.0875 222.2062500000001 138.92875 212.25 157.4475 206.9812500000001C226.818125 187.69375 499.745 187.69375 499.745 187.69375C614.2331250000001 186.3000000000001 728.69375 192.425 842.4812499999999 206.0437499999999C860.775 211.0999999999999 877.5562500000001 221.0750000000001 891.25625 235.00625C904.56875 248.525 914.20625 265.6625 919.14375 284.5875C931.71875 355.2875 937.8375 427.1318750000001 937.40625 499.1025C938.35 571.3775 932.24375 643.56125 919.18125 714.4762499999999V714.4375zM412.548125 366.33125V633.628125L640.74375 499.96125L412.548125 366.33125z" />
  </font>
</defs>
</svg>
